Latest Movie :
Recent Movies
เว็บไซต์แห่งนี้สร้างขึ้นเพื่อความบันเทิงสำหรับผู้ใหญ่ที่มีอายุ 18 ปีขึ้นไป ข้อมูลภายในเว็บถูกสร้างขึ้นและเผยแพร่อัติโนมัติ ประกาศ :: งดอัพเดต และเผยแพร่ภาพยนต์ของบริษัท M Pictures ตามหนังสือขอความร่วมมือไม่ละเมิดลิขสิทธิ์ หมายเหตุ : เว็บนี้ Share Video มาจาก เว็บบริการต่างๆ เช่น Mthai One2Up Youtube และอื่นๆ ไม่ได้เป็นเจ้าของไฟล์หรืออัพโหลดแต่อย่างใด หากมีวีดีโอใดละเมิดลิขสิขธิ์ โปรดแจ้งลบได้ที่นี้ ทางเว็บไซต์ยินดีให้ความร่วมมือและลบวีดิโอดังกล่าวออกจากระบบโดยเร็ว

[Mini-HD] Snow White and the Huntsman (2012): สโนว์ไวท์ & พรานป่า ในศึกมหัศจรรย์ [720p.][เสียงอังกฤษ][บทบรรยายไทย-อังกฤษ]




Snow White and the Huntsman (2012): สโนว์ไวท์ & พรานป่า ในศึกมหัศจรรย์ | 2.77GB

เรื่องย่อ
               คริสเตน สจ๊วต พลิกสู่บทแอ็คชั่นแฟนตาซี ในภาพยนตร์ฟอร์มยักษ์สุดยิ่งใหญ่ของปี 2012 แนวแอ็คชั่นผจญภัย สโนวไวท์ แอนด์ เดอะ ฮันท์สแมน นางเอกสาวสุดฮอต คริสเตน สจ๊วต (จาก ทไวไลท์) มานำแสดง ดัดแปลงนิยายที่ทั่วโลกรู้จักดี มาเป็นเรื่องราวที่สนุกสนานเข้มข้นขึ้น สโนไวท์ สาวน้อยที่กระจกวิเศษบอกว่าเธอสวยกว่า ราชินีแห่งความชั่วร้าย (แสดงโดย ชาร์ลิซ เธอรอน ดารายอดฝีมือระดับออสการ์) ดังนั้นการตามล่าทำลายล้างเจ้าหญิงสโนไวท์จึงเกิดขึ้น หลังจากโดนยึดเมืองไป สโนไวท์ก็ได้พบกับนายพรานป่า (แสดงโดย คริส เฮมส์เวิร์ธ จาก ธอร์ เทพเจ้าสายฟ้า) ที่ได้รับคำสั่งให้มาฆ่าเธอ แต่เขากลับมาฝึกให้เธอต่อสู้เพื่อทวงบัลลังก์กลับคืน ส่วนของเจ้าชายหนุ่มรูปงามผู้ตกหลุมรักในความงามและความเก่งกาจของสโนไวท์ในเวอร์ชั่นนี้ แสดงโดย แซม คลาฟิน (จาก ไพเรทออฟดิคาริบเบียน: ออน สเตรนเจอร์ ไทด์)  บทที่สุดสร้างสรรของภาพยนตร์ที่ได้รับแรงบันดาลใจจากนิยายดังเรื่องนี้ เป็นฝีมือของ โจ รอธ (ผู้อำนวยการสร้าง อลิซ อิน วันเดอร์แลนด์) กำกับโดย รูเพิร์ต แซนเดอร์ส ผู้กำกับรุ่นใหม่ที่ผ่านงานกำกับโฆษณาและงานกำกับศิลป์ที่คว้ารางวัลมากมาย

General
Unique ID: 225458029255223251503835375881944002370 (0xA99DA310C30E00C9915316170C8F6F42)
Complete name: MS.SWTH_seed-loadmovie.blogspot.com.mkv
Format : Matroska
Format version : Version 2
File size: 2.77 GiB
Duration : 2h 11mn
Overall bit rate : 3 010 Kbps
Movie name : Snow White and the Huntsman 2012~encoderarnold@EPiK
Encoded date : UTC 2012-08-31 15:58:00
Writing application: mkvmerge v3.2.0 ('Beginnings') built on Feb 12 2010 16:46:17
Writing library: libebml v0.7.9 + libmatroska v0.8.1

Video
ID : 1
Format : AVC
Format/Info: Advanced Video Codec
Format profile : High@L4.1
Format settings, CABAC : Yes
Format settings, ReFrames: 11 frames
Codec ID : V_MPEG4/ISO/AVC
Duration : 2h 11mn
Bit rate : 2 550 Kbps
Width: 1 280 pixels
Height : 544 pixels
Display aspect ratio : 2.35:1
Frame rate : 23.976 fps
Color space: YUV
Chroma subsampling : 4:2:0
Bit depth: 8 bits
Scan type: Progressive
Bits/(Pixel*Frame) : 0.153
Stream size: 2.30 GiB (83%)
Title: Snow White and the Huntsman 2012 EXTENDED mHD BluRay DD5.1 x264-EPiK
Writing library: x264 core 125 r2200 999b753
Encoding settings: cabac=1 / ref=11 / deblock=1:-3:-3 / analyse=0x3:0x113 / me=umh / subme=9 / psy=1 / psy_rd=1.10:0.00 / mixed_ref=1 / me_range=16 / chroma_me=1 / trellis=2 / 8x8dct=1 / cqm=0 / deadzone=21,11 / fast_pskip=0 / chroma_qp_offset=-3 / threads=6 / lookahead_threads=1 / sliced_threads=0 / nr=0 / decimate=0 / interlaced=0 / bluray_compat=0 / constrained_intra=0 / bframes=6 / b_pyramid=2 / b_adapt=2 / b_bias=0 / direct=3 / weightb=1 / open_gop=0 / weightp=2 / keyint=240 / keyint_min=23 / scenecut=40 / intra_refresh=0 / rc_lookahead=60 / rc=2pass / mbtree=1 / bitrate=2550 / ratetol=1.0 / qcomp=0.50 / qpmin=0 / qpmax=69 / qpstep=4 / cplxblur=20.0 / qblur=0.5 / ip_ratio=1.40 / aq=1:0.70
Language : English
Default: No
Forced : No
Matrix coefficients: BT.709-5, BT.1361, IEC 61966-2-4 709, SMPTE RP177

Audio
ID : 2
Format : AC-3
Format/Info: Audio Coding 3
Mode extension : CM (complete main)
Format settings, Endianness: Big
Codec ID : A_AC3
Duration : 2h 11mn
Bit rate mode: Constant
Bit rate : 448 Kbps
Channel(s) : 6 channels
Channel positions: Front: L C R, Side: L R, LFE
Sampling rate: 48.0 KHz
Bit depth: 16 bits
Compression mode : Lossy
Stream size: 422 MiB (15%)
Title: English audio AC3 5.1@448kbps
Language : English
Default: No
Forced : No

Text #1
ID : 3
Format : UTF-8
Codec ID : S_TEXT/UTF8
Codec ID/Info: UTF-8 Plain Text
Title: English subtitle
Language : English
Default: No
Forced : No

Text #2
ID : 4
Format : VobSub
Muxing mode: zlib
Codec ID : S_VOBSUB
Codec ID/Info: The same subtitle format used on DVDs
Language : Thai
Default: Yes
Forced : No

Text #3
ID : 5
Format : VobSub
Muxing mode: zlib
Codec ID : S_VOBSUB
Codec ID/Info: The same subtitle format used on DVDs
Language : Thai
Default: No
Forced : No

Text #4
ID : 6
Format : VobSub
Muxing mode: zlib
Codec ID : S_VOBSUB
Codec ID/Info: The same subtitle format used on DVDs
Language : Thai
Default: No
Forced : No

Text #5
ID : 7
Format : VobSub
Muxing mode: zlib
Codec ID : S_VOBSUB
Codec ID/Info: The same subtitle format used on DVDs
Language : Thai
Default: No
Forced : No

Text #6
ID : 8
Format : VobSub
Muxing mode: zlib
Codec ID : S_VOBSUB
Codec ID/Info: The same subtitle format used on DVDs
Language : Thai
Default: No
Forced : No

Text #7
ID : 9
Format : VobSub
Muxing mode: zlib
Codec ID : S_VOBSUB
Codec ID/Info: The same subtitle format used on DVDs
Language : Thai
Default: No
Forced : No

Text #8
ID : 10
Format : VobSub
Muxing mode: zlib
Codec ID : S_VOBSUB
Codec ID/Info: The same subtitle format used on DVDs
Language : Thai
Default: No
Forced : No

Text #9
ID : 11
Format : VobSub
Muxing mode: zlib
Codec ID : S_VOBSUB
Codec ID/Info: The same subtitle format used on DVDs
Language : Thai
Default: No
Forced : No

Text #10
ID : 12
Format : VobSub
Muxing mode: zlib
Codec ID : S_VOBSUB
Codec ID/Info: The same subtitle format used on DVDs
Language : Thai
Default: No
Forced : No
 







================================================
 ** แบบแบ่ง Part 200MB โหลดแทนกันได้ **
 -- Winrar ใส่ Recovery Record 5% ทุกไฟล์ครับ คลิก --
 ================================================
{[['']]}

[Mini-HD] Overheard 2 (2011)/ พลิกแผนฆ่า..ล่าสังหาร [720p.][เสียง ไทย-จีน][บรรยาย ไทย-อังกฤษ]




Overheard 2 (2011)/ พลิกแผนฆ่า..ล่าสังหาร  | 3.36GB

เรื่องย่อ
               ตลาดหุ้นได้มีการตั้งสมาคมท้องถิ่นขึ้น ซึ่งรวบรวมบรรดาเซียนเล่นหุ้นอาวุโสมากมาย โดยมี อาถง เป็นนายกสมาคม และสมาชิกใหม่คือ อาหลอ ผู้ทำหน้าที่เป็นโบรกเกอร์ อาหลอ ได้ถูกชายหนุ่มคนนึงตามรังควาน ติดเครื่องดักฟังโทรศัพท์ จนในที่สุดถึงได้รู้ว่า คือ ลูกชายของเซียนเล่นหุ้นรุ่นเก่า อาเสียน นั่นคือ อาจู่ ที่คอยดูแลแม่ที่เป็นโรคความจำเสื่อมอยู่ในบ้านพักคนชรา และในที่สุดความจริงก็ได้เปิดเผยว่า นายกสมาคมอาถงได้ฆ่าพ่อของเค้าที่เคยเป็นสมาชิกและเป็นเหมือนพี่น้อง โกงเงินไปจนหมด ทำให้อาจู่แค้นใจ คิดจะยึดครองหุ้นบางส่วน แต่สุดท้ายกลับถูกอาถงจับได้และฆ่าตาย ส่วนอาถงก็หนีไม่พ้นจึงต้องติดคุก

 General
Unique ID: 184083927103941317354714197533187479314 (0x8A7D4655F31D129BBFE1624762819712)
Complete name: M.O2_seed-loadmovie.blogspot.com.mkv
Format : Matroska
Format version : Version 2
File size: 3.36 GiB
Duration : 1h 59mn
Overall bit rate : 4 033 Kbps
Encoded date : UTC 2012-08-30 09:50:34
Writing application: mkvmerge v3.4.0 ('Rapunzel') built on May 15 2010 09:38:20
Writing library: libebml v0.8.0 + libmatroska v0.9.0

Video
ID : 1
Format : AVC
Format/Info: Advanced Video Codec
Format profile : High@L4.1
Format settings, CABAC : Yes
Format settings, ReFrames: 4 frames
Codec ID : V_MPEG4/ISO/AVC
Duration : 1h 59mn
Bit rate : 2 300 Kbps
Width: 1 280 pixels
Height : 546 pixels
Display aspect ratio : 2.35:1
Frame rate mode: Variable
Frame rate : 24.000 fps
Color space: YUV
Chroma subsampling : 4:2:0
Bit depth: 8 bits
Scan type: Progressive
Bits/(Pixel*Frame) : 0.137
Stream size: 1.86 GiB (55%)
Title: Encode 2pass by softerman
Writing library: x264 core 116 r2019M 9cc407d
Encoding settings: cabac=1 / ref=5 / deblock=1:0:0 / analyse=0x3:0x133 / me=dia / subme=7 / psy=1 / psy_rd=1.00:0.20 / mixed_ref=1 / me_range=16 / chroma_me=1 / trellis=0 / 8x8dct=1 / cqm=0 / deadzone=21,11 / fast_pskip=1 / chroma_qp_offset=-2 / threads=20 / sliced_threads=0 / nr=0 / decimate=1 / interlaced=0 / bluray_compat=0 / constrained_intra=0 / bframes=5 / b_pyramid=1 / b_adapt=0 / b_bias=0 / direct=3 / weightb=1 / open_gop=0 / weightp=0 / keyint=240 / keyint_min=24 / scenecut=40 / intra_refresh=0 / rc_lookahead=50 / rc=2pass / mbtree=1 / bitrate=2300 / ratetol=1.0 / qcomp=0.60 / qpmin=10 / qpmax=51 / qpstep=4 / cplxblur=20.0 / qblur=0.5 / ip_ratio=1.40 / aq=1:1.00
Language : Chinese
Default: Yes
Forced : No

Audio #1
ID : 2
Format : AC-3
Format/Info: Audio Coding 3
Mode extension : CM (complete main)
Format settings, Endianness: Big
Codec ID : A_AC3
Duration : 1h 59mn
Bit rate mode: Constant
Bit rate : 640 Kbps
Channel(s) : 6 channels
Channel positions: Front: L C R, Side: L R, LFE
Sampling rate: 48.0 KHz
Bit depth: 16 bits
Compression mode : Lossy
Stream size: 546 MiB (16%)
Title: Cantonese DD5.1
Language : Chinese
Default: No
Forced : No

Audio #2
ID : 3
Format : AC-3
Format/Info: Audio Coding 3
Mode extension : CM (complete main)
Format settings, Endianness: Big
Codec ID : A_AC3
Duration : 1h 59mn
Bit rate mode: Constant
Bit rate : 640 Kbps
Channel(s) : 6 channels
Channel positions: Front: L C R, Side: L R, LFE
Sampling rate: 48.0 KHz
Bit depth: 16 bits
Compression mode : Lossy
Stream size: 546 MiB (16%)
Title: Mandarin DD 5.1
Language : Chinese
Default: No
Forced : No

Audio #3
ID : 4
Format : AC-3
Format/Info: Audio Coding 3
Mode extension : CM (complete main)
Format settings, Endianness: Big
Codec ID : A_AC3
Duration : 1h 59mn
Bit rate mode: Constant
Bit rate : 448 Kbps
Channel(s) : 6 channels
Channel positions: Front: L C R, Side: L R, LFE
Sampling rate: 48.0 KHz
Bit depth: 16 bits
Compression mode : Lossy
Stream size: 383 MiB (11%)
Title: [THAI AC3 FROM DVD MASTER]
Language : Thai
Default: Yes
Forced : No

Text #1
ID : 5
Format : VobSub
Muxing mode: zlib
Codec ID : S_VOBSUB
Codec ID/Info: The same subtitle format used on DVDs
Title: [SUB THAI FROM DVD MASTER]
Language : Thai
Default: Yes
Forced : No

Text #2
ID : 6
Format : VobSub
Muxing mode: zlib
Codec ID : S_VOBSUB
Codec ID/Info: The same subtitle format used on DVDs
Title: [SUB ENG FROM DVD MASTER]
Language : English
Default: No
Forced : No
 

================================================
 ** แบบแบ่ง Part 200MB โหลดแทนกันได้ **
 -- Winrar ใส่ Recovery Record 5% ทุกไฟล์ครับ คลิก --
 ================================================
{[['']]}

[Mini-HD] Scream Of The Banshee (After Dark Originals) (2011) มิติสยอง 7 ป่าช้า หวีดคลั่งตาย [720p.][เสียง ไทย-อังกฤษ][บรรยาย ไทย-อังกฤษ]




Scream Of The Banshee (After Dark Originals) (2011) มิติสยอง 7 ป่าช้า หวีดคลั่งตาย | 3.43GB

เรื่องย่อ
               ตำนานเก่าแก่ของชาวไอริช เมื่อใดก็ตามที่คุณได้ยินเสียงร้องโหยหวนไม่ทราบที่มาที่ไป สังหรณ์ใจไว้ได้เลยว่า นั่นคือเสียงของบานชี ผีสาวที่จะมาส่งเสียงร้อง เพื่อบอกข่าวเป็นนัย ๆ ว่า คุณหรือคนที่เกี่ยวข้องกับคุณกำลังจะประสบ พบกับความตาย Scream of the Banshee เป็น 1 ในหนังสยองขวัญชุด After Dark เล่าเรื่องอิงตำนานปรัมปราดังกล่าว เมื่ออาจารย์มหาวิทยาลัย พร้อมกับบรรดาลูกศิษย์ บังเอิญเข้าไปพบห้องลับใต้อาคารเรียน และได้เปิดกล่องปริศนาออกมา เสียงร้องโหยหวนก็ดังขึ้น หลังจากนั้นความตายก็มาเล่นงานพวกเขา...ทีละคน

General
Unique ID: 239781456573366272442813054774478783847 (0xB4643A8E33EE514AA8A8AC317A664567)
Complete name: M.SOTB_seed-loadmovie.blogspot.com.mkv
Format : Matroska
Format version : Version 2
File size: 3.43 GiB
Duration : 1h 30mn
Overall bit rate : 5 439 Kbps
Encoded date : UTC 2012-08-30 07:15:29
Writing application: mkvmerge v3.4.0 ('Rapunzel') built on May 15 2010 09:38:20
Writing library: libebml v0.8.0 + libmatroska v0.9.0

Video
ID : 1
Format : AVC
Format/Info: Advanced Video Codec
Format profile : High@L4.1
Format settings, CABAC : Yes
Format settings, ReFrames: 4 frames
Codec ID : V_MPEG4/ISO/AVC
Duration : 1h 30mn
Bit rate : 3 480 Kbps
Width: 1 280 pixels
Height : 720 pixels
Display aspect ratio : 16:9
Frame rate mode: Variable
Frame rate : 23.976 fps
Color space: YUV
Chroma subsampling : 4:2:0
Bit depth: 8 bits
Scan type: Progressive
Bits/(Pixel*Frame) : 0.157
Stream size: 2.13 GiB (62%)
Title: Encode 2pass by softerman
Writing library: x264 core 116 r2019M 9cc407d
Encoding settings: cabac=1 / ref=5 / deblock=1:0:0 / analyse=0x3:0x133 / me=dia / subme=7 / psy=1 / psy_rd=1.00:0.20 / mixed_ref=1 / me_range=16 / chroma_me=1 / trellis=0 / 8x8dct=1 / cqm=0 / deadzone=21,11 / fast_pskip=1 / chroma_qp_offset=-2 / threads=20 / sliced_threads=0 / nr=0 / decimate=1 / interlaced=0 / bluray_compat=0 / constrained_intra=0 / bframes=5 / b_pyramid=1 / b_adapt=0 / b_bias=0 / direct=3 / weightb=1 / open_gop=0 / weightp=0 / keyint=230 / keyint_min=23 / scenecut=40 / intra_refresh=0 / rc_lookahead=50 / rc=2pass / mbtree=1 / bitrate=3480 / ratetol=1.0 / qcomp=0.60 / qpmin=10 / qpmax=51 / qpstep=4 / cplxblur=20.0 / qblur=0.5 / ip_ratio=1.40 / aq=1:1.00
Language : English
Default: Yes
Forced : No

Audio #1
ID : 2
Format : DTS
Format/Info: Digital Theater Systems
Codec ID : A_DTS
Duration : 1h 30mn
Bit rate mode: Constant
Bit rate : 1 510 Kbps
Channel(s) : 6 channels
Channel positions: Front: L C R, Side: L R, LFE
Sampling rate: 48.0 KHz
Bit depth: 24 bits
Compression mode : Lossy
Stream size: 976 MiB (28%)
Title: DTS
Language : English
Default: Yes
Forced : No

Audio #2
ID : 3
Format : AC-3
Format/Info: Audio Coding 3
Mode extension : CM (complete main)
Format settings, Endianness: Big
Codec ID : A_AC3
Duration : 1h 30mn
Bit rate mode: Constant
Bit rate : 448 Kbps
Channel(s) : 6 channels
Channel positions: Front: L C R, Side: L R, LFE
Sampling rate: 48.0 KHz
Bit depth: 16 bits
Compression mode : Lossy
Stream size: 290 MiB (8%)
Title: [THAI AC3 FROM DVD MASTER]
Language : Thai
Default: No
Forced : No

Text #1
ID : 4
Format : VobSub
Muxing mode: zlib
Codec ID : S_VOBSUB
Codec ID/Info: The same subtitle format used on DVDs
Title: [SUB THAI FROM DVD MASTER]
Language : Thai
Default: Yes
Forced : No

Text #2
ID : 5
Format : UTF-8
Codec ID : S_TEXT/UTF8
Codec ID/Info: UTF-8 Plain Text
Title: ENG SRT
Language : English
Default: No
Forced : No
 

================================================
 ** แบบแบ่ง Part 200MB โหลดแทนกันได้ **
 -- Winrar ใส่ Recovery Record 5% ทุกไฟล์ครับ คลิก --
 ================================================
{[['']]}

[Super Mini-HD] The 6th Day (2000) เดอะ ซิกซ์ เดย์ วันล่าคนเหล็กอหังการ [720p][Audio AC3 5.1:Th+En][Sub:Th+En]




  The 6th Day (2000) เดอะ ซิกซ์ เดย์ วันล่าคนเหล็กอหังการ | 2.00GB

เรื่องย่อ
              ในอนาคตอันใกล้ เทคโนโลยีการโคลนนิ่งได้พัฒนามาอย่างก้าวกระโดด แต่การใช้กับมนุษย์ ยังถือเป็นเรื่องที่ผิดกฎหมายอย่างร้ายแรงจนกระทั่งวันหนึ่ง เมื่ออดัม กิ๊บสัน (ชวาซเซเนกเกอร์) เดินทางจากที่ทำงานของเพื่อนสนิท แฮงค์ มอร์แกน (แรพพาพอร์ท) และกลับมาที่บ้านเพื่อที่จะพบว่า มี "ตัวเขาอีกคนหนึ่ง" อยู่ที่บ้านกับครอบครัวของเขาเอง แต่ก่อนที่จะทันได้ความจริง เขาก็ถูกตามล่า เอาชีวิตจากกลุ่มนักฆ่ารับจ้างที่ต้องการปิดปากเรื่องการโคลนนิ่งมนุษย์ อดัมจึงต้องหลบหนีและค้นหาความจริง จากผู้ที่มีส่วนในการสร้าง "ตัวเขา" ขึ้นมา,ไมเคิล ดรัคเกอร์ (โกลด์วิน) ตอนนี้เองที่อดัมรู้แล้วว่าคุณเอง ไม่อาจถูกสร้างขึ้นมาได้เอง แต่เขาพร้อมหรือไม่ที่จะรับมือกับความร้ายกาจของ

General
Unique ID: 201696799810031450552862895815680455806 (0x97BD640140CF361387C98EB8BFADF47E)
Complete name: S.T6D_seed-loadmovie.blogspot.com.avi
Format : Matroska
Format version : Version 2
File size: 2.00 GiB
Duration : 2h 3mn
Overall bit rate : 2 317 Kbps
Movie name : The.6th.Day.2000.720p.H264.DTS-ENG.Dolby-THA
Encoded date : UTC 2012-08-30 06:19:15
Writing application: mkvmerge v4.8.0 ('I Got The...') built on May 24 2011 03:12:58
Writing library: libebml v1.2.0 + libmatroska v1.1.0

Video
ID : 1
Format : AVC
Format/Info: Advanced Video Codec
Format profile : Main@L5.1
Format settings, CABAC : Yes
Format settings, ReFrames: 1 frame
Codec ID : V_MPEG4/ISO/AVC
Duration : 2h 3mn
Bit rate : 1 759 Kbps
Width: 1 280 pixels
Height : 534 pixels
Display aspect ratio : 2.40:1
Frame rate : 23.976 fps
Color space: YUV
Chroma subsampling : 4:2:0
Bit depth: 8 bits
Scan type: Progressive
Bits/(Pixel*Frame) : 0.107
Stream size: 1.52 GiB (76%)
Title: The.6th.Day.2000.720p.HL51HQ.tMODx264.8bits.ENGDTS51.THADD51
Language : English
Default: Yes
Forced : No

Audio #1
ID : 2
Format : AC-3
Format/Info: Audio Coding 3
Mode extension : CM (complete main)
Format settings, Endianness: Big
Codec ID : A_AC3
Duration : 2h 3mn
Bit rate mode: Constant
Bit rate : 256 Kbps
Channel(s) : 6 channels
Channel positions: Front: L C R, Side: L R, LFE
Sampling rate: 48.0 KHz
Bit depth: 16 bits
Compression mode : Lossy
Stream size: 226 MiB (11%)
Title: AC3 5.1 256k Thai
Language : Thai
Default: Yes
Forced : No

Audio #2
ID : 3
Format : AC-3
Format/Info: Audio Coding 3
Mode extension : CM (complete main)
Format settings, Endianness: Big
Codec ID : A_AC3
Duration : 2h 3mn
Bit rate mode: Constant
Bit rate : 256 Kbps
Channel(s) : 6 channels
Channel positions: Front: L C R, Side: L R, LFE
Sampling rate: 48.0 KHz
Bit depth: 16 bits
Compression mode : Lossy
Stream size: 226 MiB (11%)
Title: AC3 5.1 256k English - DTS
Language : English
Default: No
Forced : No

Text #1
ID : 4
Format : VobSub
Codec ID : S_VOBSUB
Codec ID/Info: The same subtitle format used on DVDs
Title: THA VOBSUB
Language : Thai
Default: No
Forced : No

Text #2
ID : 5
Format : VobSub
Codec ID : S_VOBSUB
Codec ID/Info: The same subtitle format used on DVDs
Title: ENG VOBSUB
Language : English
Default: No
Forced : No
 

================================================
 ** แบบแบ่ง Part 200MB โหลดแทนกันได้ **
 -- Winrar ใส่ Recovery Record 5% ทุกไฟล์ครับ คลิก --
 ================================================
{[['']]}

[Super Mini-HD] Scream Of The Banshee (After Dark Originals) (2011) มิติสยอง 7 ป่าช้า หวีดคลั่งตาย [720p][Audio AC3 5.1:Th+En][Sub:Th+En]




Scream Of The Banshee (After Dark Originals) (2011) มิติสยอง 7 ป่าช้า หวีดคลั่งตาย | 1.32GB

เรื่องย่อ
               ตำนานเก่าแก่ของชาวไอริช เมื่อใดก็ตามที่คุณได้ยินเสียงร้องโหยหวนไม่ทราบที่มาที่ไป สังหรณ์ใจไว้ได้เลยว่า นั่นคือเสียงของบานชี ผีสาวที่จะมาส่งเสียงร้อง เพื่อบอกข่าวเป็นนัย ๆ ว่า คุณหรือคนที่เกี่ยวข้องกับคุณกำลังจะประสบ พบกับความตาย Scream of the Banshee เป็น 1 ในหนังสยองขวัญชุด After Dark เล่าเรื่องอิงตำนานปรัมปราดังกล่าว เมื่ออาจารย์มหาวิทยาลัย พร้อมกับบรรดาลูกศิษย์ บังเอิญเข้าไปพบห้องลับใต้อาคารเรียน และได้เปิดกล่องปริศนาออกมา เสียงร้องโหยหวนก็ดังขึ้น หลังจากนั้นความตายก็มาเล่นงานพวกเขา...ทีละคน

General
Complete name                            : SMHv2 Scream Of The Banshee (After Dark Originals) (2011) 720p.SS Th+En.avi
Format                                   : Matroska
Format version                           : Version 2
File size                                : 1.32 GiB
Duration                                 : 1h 30mn
Overall bit rate                         : 2 091 Kbps
Movie name                               : The.6th.Day.2000.720p.H264.DTS-ENG.Dolby-THA
Encoded date                             : UTC 2012-08-30 11:35:21
Writing application                      : mkvmerge v4.8.0 ( I Got The... ) built on May 24 2011 03:12:58
Writing library                          : libebml v1.2.0 + libmatroska v1.1.0

Video
ID                                       : 1
Format                                   : AVC
Format/Info                              : Advanced Video Codec
Format profile                           : Main@L5.1
Format settings  ,   CABAC                   : Yes
Format settings  ,   ReFrames                : 1 frame
Codec ID                                 : V_MPEG4/ISO/AVC
Duration                                 : 1h 30mn
Bit rate                                 : 1 537 Kbps
Width                                    : 1 280 pixels
Height                                   : 720 pixels
Display aspect ratio                     : 16:9
Frame rate                               : 23.976 fps
Color space                              : YUV
Chroma subsampling                       : 4:2:0
Bit depth                                : 8 bits
Scan type                                : Progressive
Bits/(Pixel*Frame)                       : 0.070
Stream size                              : 991 MiB (74%)
Title                                    : Scream.of.the.Banshee.2011.1080p.AC3.DTS.Eng.NL.Subs.DMT.mkv
Language                                 : English
Default                                  : Yes
Forced                                   : No

Audio #1
ID                                       : 2
Format                                   : AC-3
Format/Info                              : Audio Coding 3
Mode extension                           : CM (complete main)
Format settings  ,   Endianness              : Big
Codec ID                                 : A_AC3
Duration                                 : 1h 30mn
Bit rate mode                            : Constant
Bit rate                                 : 256 Kbps
Channel(s)                               : 6 channels
Channel positions                        : Front: L C R  ,   Side: L R  ,   LFE
Sampling rate                            : 48.0 KHz
Bit depth                                : 16 bits
Compression mode                         : Lossy
Stream size                              : 165 MiB (12%)
Title                                    : AC3 5.1 256k Thai - DVD Master
Language                                 : Thai
Default                                  : Yes
Forced                                   : No

Audio #2
ID                                       : 3
Format                                   : AC-3
Format/Info                              : Audio Coding 3
Mode extension                           : CM (complete main)
Format settings  ,   Endianness              : Big
Codec ID                                 : A_AC3
Duration                                 : 1h 30mn
Bit rate mode                            : Constant
Bit rate                                 : 256 Kbps
Channel(s)                               : 6 channels
Channel positions                        : Front: L C R  ,   Side: L R  ,   LFE
Sampling rate                            : 48.0 KHz
Bit depth                                : 16 bits
Compression mode                         : Lossy
Stream size                              : 165 MiB (12%)
Title                                    : AC3 5.1 256k English - AC3 From Bluray
Language                                 : English
Default                                  : No
Forced                                   : No

Text #1
ID                                       : 4
Format                                   : VobSub
Codec ID                                 : S_VOBSUB
Codec ID/Info                            : The same subtitle format used on DVDs
Title                                    : [SUB THAI FROM DVD MASTER]
Language                                 : Thai
Default                                  : No
Forced                                   : No

Text #2
ID                                       : 5
Format                                   : UTF-8
Codec ID                                 : S_TEXT/UTF8
Codec ID/Info                            : UTF-8 Plain Text
Title                                    : Sub Eng SRT
Language                                 : English
Default                                  : No
Forced                                   : No
  

================================================
 ** แบบแบ่ง Part 200MB โหลดแทนกันได้ **
 -- Winrar ใส่ Recovery Record 5% ทุกไฟล์ครับ คลิก --
 ================================================
{[['']]}

Popular Posts

 
Support : Creating Website | Johny Template | Mas Template
Copyright © 2011. movie-hot-loads โหลดหนังฟรี HD - All Rights Reserved
Template Created by Creating Website Published by Mas Template
Proudly powered by Blogger